В гостях у Александра Клячина » Программы » Полезные программы » Злополучный Lossless

Страниц (2): « 1 [2]
 

11. igorpik - 08 Апреля, 2009 - 21:09:32 - перейти к сообщению
После удачного открыти я ЕАС ом , я тут же записал на CD
После этого сохранил куй
Теперь он выглядит так
PERFORMER "Manfred Mann's Earth Band"
TITLE "Watch"
FILE "D:\Igor(F)\Downloads\Mann 78\Manfred Mann's Earth Band - Watch.wav" WAVE
TRACK 01 AUDIO
TITLE "Circles"
PERFORMER "Manfred Mann's Earth Band"
INDEX 01 00:00:00
TRACK 02 AUDIO
TITLE "Drowning On Dry Land / Fish Soup"
PERFORMER "Manfred Mann's Earth Band"
INDEX 01 04:49:05
TRACK 03 AUDIO
TITLE "Chicago Institute"
PERFORMER "Manfred Mann's Earth Band"
INDEX 01 10:49:50
TRACK 04 AUDIO
TITLE "California"
PERFORMER "Manfred Mann's Earth Band"
INDEX 01 16:36:57
TRACK 05 AUDIO
TITLE "Davy's On The Road Again"
PERFORMER "Manfred Mann's Earth Band"
INDEX 01 22:08:49
TRACK 06 AUDIO
TITLE "Martha's Madmann"
PERFORMER "Manfred Mann's Earth Band"
INDEX 01 28:03:24
TRACK 07 AUDIO
TITLE "Mighty Quinn"
PERFORMER "Manfred Mann's Earth Band"
INDEX 01 32:56:13
TRACK 08 AUDIO
TITLE "California (Single Versiont)"
PERFORMER "Manfred Mann's Earth Band"
INDEX 01 39:23:40
TRACK 09 AUDIO
TITLE "Davy's On The Road Again (Single Versiont)"
PERFORMER "Manfred Mann's Earth Band"
INDEX 01 43:10:15
TRACK 10 AUDIO
TITLE "Bouillabaisse"
PERFORMER "Manfred Mann's Earth Band"
INDEX 01 46:48:37
TRACK 11 AUDIO
TITLE "Mighty Quinn (Single Versiont)"
PERFORMER "Manfred Mann's Earth Band"
INDEX 01 50:48:29
12. Dronych - 11 Апреля, 2009 - 16:01:27 - перейти к сообщению
А можно из флака в вав переделать и записать?
13. Dmitry - 11 Апреля, 2009 - 17:00:21 - перейти к сообщению
(для просмотра ссылки Вам необходимо авторизоваться)
14. slash_ - 12 Апреля, 2009 - 11:12:12 - перейти к сообщению
Dronych
Конечно можно! Воспользуйтесь ссылкой, которую предложил Dmitry,
или конвертируйте фубаром. Только в cue файле нужно заменить расширение flac на wav в строке где указан путь к файлу образа.
15. пчеловод - 14 Апреля, 2009 - 09:25:49 - перейти к сообщению
Dronych
 Цитата:
А можно из флака в вав переделать и записать?


Хорошая программа Easy CD-DA Extractor Professional 12.0.0 Build 1,
бесплатно скачать можно:
(для просмотра ссылки Вам необходимо авторизоваться)
Программа русифицирована.


Powered by ExBB
ExBB FM 1.0 RC1 by TvoyWeb.ru
InvisionExBB Style converted by Markus®