На главную страницу сайта В гостях у Александра Клячина
 Помощь      Поиск      Пользователи


 Страниц (2): [1] 2 »   

> Без описания
igorpik
Отправлено: 07 Апреля, 2009 - 23:23:46
Post Id



Пользователь
Super Member

Покинул форум
Сообщений всего: 2880
Дата рег-ции: Февр. 2005  
Откуда: Москва
Прошу помощи!
Некоторые lossless файлы скачаные с торента не хотят записываться ЕАС
Проблема как всегда в индексной карте
В некотрых случаях удается исправить положение заменив ape на wav
А вот иногда не идет никак. В чем дело?
Есть альтернативные способы разбивки большого файла WAV на трэки?
Или создания новой индексной карты?
Одним словом можно ли сделать нормальный CD располагая только разжатым в WAV "цельнометаллическим " файлом?

-----
Шарнхорст и Гнейзенау
 
 Top
NecroniX
Отправлено: 08 Апреля, 2009 - 10:51:33
Post Id



Пользователь
Super Member

Покинул форум
Сообщений всего: 721
Дата рег-ции: Авг. 2006  
Откуда: Санкт-Петербург
igorpik
Несовпадение индексных карт легко решаются вручную. Сравните работающий cue и некорректный, увидите, что у них различаются описания треков, в некорректном часто присутствуют лишние строки. Исправьте нерабочий по подобию рабочего и все заработает. Более подробно по памяти рассказать не могу, нет примеров под рукой.

А также индексную карту можно создать в самом EAC, есть там такая утилита.

-----
"Я не знаю ничего, ради чего стоило бы жить, кроме самой жизни". Эрленд Лу.
 
 Top
Ослик ИА
Отправлено: 08 Апреля, 2009 - 13:38:04
Post Id



Пользователь
Super Member

Покинул форум
Сообщений всего: 2102
Дата рег-ции: Май 2004  
Откуда: Чебоксары
 Цитата:
Одним словом можно ли сделать нормальный CD располагая только разжатым в WAV "цельнометаллическим " файлом?


Откройте файл в звуковом редакторе, расставьте метки на границах треков и записывайте диск прямо из этого редактора.

Но гораздо проще и быстрее вручную откорректировать cue-файл. Как уже сказали выше, откройте правильный файл, посмотрите на его структуру и поймите её. Каждый трек описывается несколькими строчками строчками. Необходимы только первая и последняя, причём именно в указанном порядке. Остальные строки могут быть опущены.

CODE:
TRACK 01 AUDIO (номер трека. Эта строка должна стоять первой, она открывает описание трека)
TITLE "A quoi je sers ..." (название трека)
PERFORMER "Mylene Farmer" (исполнитель)
INDEX 01 00:00:00 (время от начала файла)


Мне тоже попадались неправильные cue, и я заметил, что в них строчки перепутаны местами. Например, строчка TRACK уходит в конец описания. Поставить строки на место - дело одной минуты.

Вот статья о структуре cue-файлов(для просмотра ссылки Вам необходимо авторизоваться)

(Добавление)
 Цитата:
А также индексную карту можно создать в самом EAC, есть там такая утилита.
Эта утилита разбивает на треки по тихим местам (в надежде, что тихое место совпадает с границей между треками). Часто ошибается.
 
 Top
igorpik
Отправлено: 08 Апреля, 2009 - 16:13:11
Post Id



Пользователь
Super Member

Покинул форум
Сообщений всего: 2880
Дата рег-ции: Февр. 2005  
Откуда: Москва
Ослик ИА

PERFORMER "Manfred Mann's Earth Band"
TITLE "Watch"
FILE "Manfred Mann's Earth Band - Watch.wav" WAVE
TRACK 01 AUDIO
TITLE "Circles"
PERFORMER "Manfred Mann's Earth Band"
INDEX 01 00:00:00
TRACK 02 AUDIO
TITLE "Drowning On Dry Land / Fish Soup"
PERFORMER "Manfred Mann's Earth Band"
INDEX 01 04:49:05
TRACK 03 AUDIO
TITLE "Chicago Institute"
PERFORMER "Manfred Mann's Earth Band"
INDEX 01 10:49:50
TRACK 04 AUDIO
TITLE "California"
PERFORMER "Manfred Mann's Earth Band"
INDEX 01 16:36:57
TRACK 05 AUDIO
TITLE "Davy's On The Road Again"
PERFORMER "Manfred Mann's Earth Band"
INDEX 01 22:08:49
TRACK 06 AUDIO
TITLE "Martha's Madmann"
PERFORMER "Manfred Mann's Earth Band"
INDEX 01 28:03:24
TRACK 07 AUDIO
TITLE "Mighty Quinn"
PERFORMER "Manfred Mann's Earth Band"
INDEX 01 32:56:13
TRACK 08 AUDIO
TITLE "California (Single Versiont)"
PERFORMER "Manfred Mann's Earth Band"
INDEX 00 39:18:35
INDEX 01 39:23:40
TRACK 09 AUDIO
TITLE "Davy's On The Road Again (Single Versiont)"
PERFORMER "Manfred Mann's Earth Band"
INDEX 01 43:10:15
TRACK 10 AUDIO
TITLE "Bouillabaisse"
PERFORMER "Manfred Mann's Earth Band"
INDEX 01 46:48:37
TRACK 11 AUDIO
TITLE "Mighty Quinn (Single Versiont)"
PERFORMER "Manfred Mann's Earth Band"
INDEX 01 50:48:29

Вот такой куй - вроде все нормально. Правда однажды при попытке что то сделать в Wawelab проскакивало сообщение - синтаксическая ошибка
В ркдакторе ЕАС все время указывает на ошибку в 3 строке

-----
Шарнхорст и Гнейзенау
 
 Top
Ослик ИА
Отправлено: 08 Апреля, 2009 - 16:58:56
Post Id



Пользователь
Super Member

Покинул форум
Сообщений всего: 2102
Дата рег-ции: Май 2004  
Откуда: Чебоксары
Я положил твой куй рядом с чужим wav файлом. Переименовал wav файл в соответствии с куем. После этого всё нормально открылось в фубаре, в вейвлабе и в ЕАСе. В чём конкретно у тебя проблема?
 
 Top
igorpik
Отправлено: 08 Апреля, 2009 - 18:26:56
Post Id



Пользователь
Super Member

Покинул форум
Сообщений всего: 2880
Дата рег-ции: Февр. 2005  
Откуда: Москва
Ослик ИА
При попытке записать CD или разбить WAV н.а трэки выдает сообщение об ошибке 3 строке.

-----
Шарнхорст и Гнейзенау
 
 Top
igorpik
Отправлено: 08 Апреля, 2009 - 20:38:05
Post Id



Пользователь
Super Member

Покинул форум
Сообщений всего: 2880
Дата рег-ции: Февр. 2005  
Откуда: Москва
Ослик ИА
NecroniX
YES!!!!!!!!!!!!!!!!!!!!!!!!!!!!!!!!!!!!!!!!!!!!!!
Добился таки результата!Правда экперементировал долго убирая лишние строки и пробелы.Даже не совсем понял на каком этапе сработало.
Однако общий смысл стал понятен! Битый куй сохранен ,буду анализировать.
Спасибо друзья поддерживаюподдерживаювысший восторгвысший восторг

-----
Шарнхорст и Гнейзенау
 
 Top
Ослик ИА
Отправлено: 08 Апреля, 2009 - 20:59:44
Post Id



Пользователь
Super Member

Покинул форум
Сообщений всего: 2102
Дата рег-ции: Май 2004  
Откуда: Чебоксары
Я ничего не убирал, и у меня не выходило никаких ошибок. Я разделял файл с помощью ЕАСа. Я открывал куй в ЕАСовском редакторе, ошибок не было.
 
 Top
igorpik
Отправлено: 08 Апреля, 2009 - 21:01:17
Post Id



Пользователь
Super Member

Покинул форум
Сообщений всего: 2880
Дата рег-ции: Февр. 2005  
Откуда: Москва
Я убрал в 8 трэке строку

INDEX 00 39:18:35

-----
Шарнхорст и Гнейзенау
 
 Top
Ослик ИА
Отправлено: 08 Апреля, 2009 - 21:09:08
Post Id



Пользователь
Super Member

Покинул форум
Сообщений всего: 2102
Дата рег-ции: Май 2004  
Откуда: Чебоксары
А я не убирал.
Убирать её не обязательно, так как этот индекс находится между предыдущим и следующим, то есть никакой ошибки нет.

С другой стороны, я всегда выкидываю ненужные МНЕ индексы. Мне как-то наплевать на них, когда АББА записывалась, этих индексов не было. Но я знаю, что есть люди, которые рвут волосья, если какой-нибудь индекс пропадёт, для них такой альбом не представляет уже никакой музыкальной ценности.
 
 Top
Страниц (2): [1] 2 »
« Полезные программы »

> В гостях у Александра Клячина » Программы » Полезные программы  (Модератор: Alexandr Klyachin)

Все гости форума могут просматривать этот раздел.
Только зарегистрированные пользователи могут создавать новые темы в этом разделе.
Только зарегистрированные пользователи могут отвечать на сообщения в этом разделе.
 




Powered by ExBB